#TITLE:tsutsugamush;
#SUBTITLE:;
#ARTIST:Family Farce;
#TITLETRANSLIT:;
#SUBTITLETRANSLIT:;
#ARTISTTRANSLIT:;
#CREDIT:;
#BANNER:tsutsu.png;
#BACKGROUND:tsutsu- bg.png;
#LYRICSPATH:;
#CDTITLE:HSlogo.png;
#MUSIC:tsutsugamush.mp3;
#OFFSET:-3.015;
#SAMPLESTART:65.940;
#SAMPLELENGTH:11.500;
#SELECTABLE:YES;
#DISPLAYBPM:*;
#BPMS:0.000=75.000,22.000=300.000,150.000=630.015,168.000=499.996,169.000=361.178,170.000=326.359,171.000=294.339,172.000=269.919,173.000=228.299,174.000=196.079,176.000=94.999,184.500=149.999,209.000=299.999,338.000=74.999,342.750=105.239,347.500=192.859,353.500=299.999,356.667=400.458,356.750=410.258,357.500=5349.829;
#STOPS:175.875=1.060
,184.500=0.300
;
#BGCHANGES:6.000=Abacking_morph=1.000=1=0=1,
14.000=starzup=1.000=1=0=1,
22.000=anim_1=1.000=0=0=1,
38.000=FILM_SCROLL=1.000=0=0=1,
54.000=anim_2=1.000=0=0=1,
70.000=Film_longer=1.000=0=0=1,
86.000=BLOCK_0=1.000=0=0=1,
94.000=anim_3=1.000=0=0=1,
102.500=BLOCK_0=1.000=0=0=1,
109.500=anim_4=1.000=0=0=1,
117.500=Film_longer=1.000=0=0=1,
125.000=BLOCK_0=1.000=0=0=1,
133.500=anim_5=1.000=0=0=1,
149.000=tsutsu- bg.png=1.000=1=0=1,
176.250=Abacking_morph=1.000=1=0=1,
180.500=starzup=1.000=1=0=1,
184.625=anim_6=1.000=0=0=1,
192.500=FILM_SCROLL=1.000=1=0=1,
201.500=Film_longer=1.000=0=0=1,
209.000=anim_5=1.000=0=0=1,
213.000=anim_8=1.000=0=0=1,
217.000=BLOCK_0=1.000=0=0=1,
225.500=anim_5=1.000=0=0=1,
229.500=anim_8=1.000=0=0=1,
233.500=anim_5=1.000=0=0=1,
237.500=anim_8=1.000=0=0=1,
241.500=anim_1=1.000=0=0=1,
245.000=rage.png=1.000=0=0=1,
245.500=anim_2=1.000=0=0=1,
249.000=rage.png=1.000=0=0=1,
249.500=anim_3=1.000=0=0=1,
253.000=rage.png=1.000=0=0=1,
253.500=anim_4=1.000=0=0=1,
257.500=anim_5=1.000=0=0=1,
261.500=anim_8=1.000=0=0=1,
265.500=anim_5=1.000=0=0=1,
269.500=anim_8=1.000=0=0=1,
274.000=anim_7=1.000=0=0=1,
282.000=BLOCK_0=1.000=0=0=1,
290.000=anim_6=1.000=0=0=1,
297.500=BLOCK_0=1.000=0=0=1,
306.000=anim_8=1.000=0=0=1,
310.000=anim_5=1.000=0=0=1,
314.000=anim_5=1.000=0=0=1,
318.000=anim_8=1.000=0=0=1,
322.000=anim_5=1.000=0=0=1,
326.000=anim_8=1.000=0=0=1,
330.000=BLOCK_0=1.000=0=0=1,
338.000=tsutsu- bg.png=1.000=0=0=1,
343.000=Abacking_morph=1.000=1=0=1,
354.500=T_1.png=1.000=0=0=1,
355.500=T_2.png=1.000=0=0=1,
356.500=tsutsu- bg.png=1.000=0=0=1,
99999=-nosongbg-=1.000=0=0=0 // don't automatically add -songbackground-
;
// cache tags:
#FIRSTBEAT:3.250;
#LASTBEAT:484.500;
#SONGFILENAME:Songs/nhac/tsutsugamush/tsutsugamush.sm;
#HASMUSIC:1;
#HASBANNER:1;
#MUSICLENGTH:103.058;
// end cache tags

//---------------dance-single - Copied from Copied f----------------
#NOTES:
     dance-single:
     Copied from Copied f:
     Beginner:
     3:
     0.139,0.217,0.078,0.010,0.000,91.000,8.000,1.000,0.000,0.000:
0000
0000
0000
0000
,
0000
0000
0010
0000
,
0010
0000
1000
0000
,
0001
0000
1000
0000
,
0001
0000
0001
0000
,
0001
0000
1001
0000
,
0000
0000
0010
0000
,
0000
0000
1000
0000
,
0000
0000
0100
0000
,
0000
0000
0010
0000
,
0000
0000
0001
0000
,
0000
0000
1000
0000
,
0000
0000
0010
0000
,
0000
0000
0100
0000
,
0000
0000
0001
0000
,
0000
0000
1000
0000
,
0000
0000
0010
0000
,
0000
0000
0100
0000
,
0000
0000
0001
0000
,
0000
0000
1000
0000
,
0000
0000
0010
0000
,
0000
0100
0000
0000
,
0000
0000
0100
0000
,
0000
0000
0010
0000
,
0000
0000
0010
0000
,
0000
0000
1000
0000
,
0000
0000
1000
0000
,
0000
0000
0001
0000
,
0000
0000
0001
0000
,
0000
0000
1000
0000
,
0000
0000
0010
0000
,
0000
0000
0100
0000
,
0000
0001
0000
0000
,
0000
0000
1000
0000
,
0000
0001
0000
0000
,
0000
0000
1000
0000
,
0000
0000
0001
0000
,
0000
1000
0000
0000
,
0000
0000
0000
0000
,
0000
0000
0000
0000
,
0000
0000
0000
0000
,
0000
0000
0000
0000
,
0000
0000
0000
0000
,
0000
0000
0000
0000
,
0000
1000
0000
1000
,
0000
1000
0000
1001
,
0000
0000
0010
0000
,
0010
0000
0010
0000
,
0010
0000
1000
0000
,
1000
0000
1000
0000
,
1000
0000
0100
0000
,
0100
0000
0100
0000
,
0100
0000
0000
0000
,
0010
0000
0000
0000
,
0010
0000
0000
0000
,
1000
0000
0000
0000
,
0001
0000
0000
0000
,
0100
0000
0000
0000
,
0010
0000
0000
0000
,
1000
0000
0000
0000
,
0100
0000
0000
0000
,
0001
0000
0000
0000
,
0010
0000
0000
0000
,
1000
0000
0000
0000
,
0100
0000
0000
0000
,
0010
0000
0000
0000
,
0001
0000
0000
0000
,
1000
0000
0000
0000
,
0010
0000
0000
0000
,
0100
0000
0000
0000
,
0100
0000
0000
0000
,
0100
0000
0000
0000
,
0010
0000
0000
0000
,
1000
0000
0000
0000
,
0001
0000
0000
0000
,
1000
0000
0000
0000
,
0010
0000
0000
0000
,
1001
0000
0000
0000
,
1001
0000
0000
0000
,
1001
0000
0000
0000
,
0010
0000
0000
0000
,
1001
0000
0000
0000
,
1001
0000
0000
0000
,
1001
0000
0000
0000
,
0010
0000
0000
0000
,
1000
0002
0000
0000
,
0000
0000
0000
0000
,
0000
0000
0000
0000
,
0000
0000
0000
0000
,
0000
0003
0000
0000
;

//---------------dance-single - Copied from Copied f----------------
#NOTES:
     dance-single:
     Copied from Copied f:
     Easy:
     7:
     0.787,1.000,0.611,0.116,0.437,492.000,63.000,12.000,102.000,3.000:
0000
0000
0000
0000
0000
0000
0000
0000
0000
0000
0000
0000
0000
0020
0000
0032
,
0000
0020
0000
2000
0000
0030
0000
3003
0010
0000
0000
0000
1001
0000
0000
1100
,
0000
0000
0000
0000
0010
0100
0001
0010
1100
0000
0000
0000
1100
0000
0000
0010
,
0000
0000
0000
0000
0000
0010
0100
0001
0110
1100
0000
0000
0010
0000
0000
0100
,
0000
0000
0000
0000
0001
1000
0100
0010
0110
0000
0000
0000
0110
0000
0000
1010
,
0000
1000
0010
0100
0001
0100
0001
0100
0010
0000
0000
0000
0000
0000
1000
0000
,
0000
0000
0010
0000
0001
0000
0000
0100
,
0000
0000
0010
0000
0010
0000
0000
0100
,
0000
0001
0010
0100
,
1001
0000
0000
0100
0000
0000
0010
0000
,
0000
0000
0010
0000
0100
0000
0000
1000
,
0000
0000
0100
0000
0010
0000
0000
0001
,
0000
0010
0100
1000
,
0110
0000
0001
0010
0100
0000
1000
0100
,
0010
0000
0010
1000
0001
0000
0010
0100
,
0010
0000
0001
0010
0100
0000
0010
0100
,
0010
0000
0100
1000
0100
0000
0010
0001
,
0010
0000
0001
0100
1000
0100
1000
0001
,
0010
0100
0010
1000
0001
0100
1000
0001
,
0010
0100
0001
0010
1000
0010
0001
0010
,
1010
0110
0011
0110
,
2200
0000
0000
0000
3310
0001
1000
0000
,
0010
0001
1000
0000
0100
0010
0001
0000
,
0110
0000
0000
0000
1000
0100
0001
0000
,
0001
0010
1000
0000
0010
0100
1000
0000
,
0011
0000
0000
0000
1010
0100
0010
0000
,
0011
0100
1000
0000
0110
1000
0001
0000
,
0110
0000
0000
0000
1001
0010
0100
0000
,
0011
0100
0010
0000
1100
0010
0100
0000
,
1100
0000
0000
0000
2000
0100
3010
0000
,
0002
0010
0103
0000
0020
0100
1030
0000
,
0011
0000
0000
0000
0100
0010
0001
0000
,
0100
1000
0100
0000
0001
0010
0100
0000
,
0100
0010
0001
0000
1110
0000
0000
0010
,
1000
0010
0001
0010
1000
0010
0001
0010
,
1000
0010
0001
0010
1000
0010
0001
1000
,
0010
0100
0010
1000
0100
0001
0100
1000
,
0100
0001
1000
0000
0000
0000
0000
0000
,
0000
0000
0000
0000
,
0000
0000
0000
0000
,
0000
0000
0000
0000
,
0000
0000
0000
0000
,
0000
0000
0000
0000
,
0000
0000
0000
0000
,
0011
0110
1100
0011
0000
0110
0000
0011
,
0110
0110
0011
2000
0000
3010
0001
0010
,
0000
0000
1000
0000
0000
0000
0100
0000
0010
0000
0000
0000
1000
0100
0010
0000
,
0100
0000
0000
0000
0100
0010
0001
0000
1000
0000
1000
0100
0011
0000
0110
0000
,
1100
0000
0011
0000
0000
0000
0100
0000
1000
0000
0000
0000
0100
0010
1000
0000
,
0010
0000
0000
0000
0010
0100
1000
0000
0001
0000
0010
1000
0110
0000
1100
0000
,
0110
0000
0011
0000
0000
0000
0010
0000
0010
0000
0000
0000
0100
0010
0001
0000
,
1000
0000
0100
0010
1000
0000
0001
0000
0010
0100
0001
0000
1000
0100
0010
0000
,
0110
0011
0100
1000
0100
1000
0100
1000
,
0100
1000
0100
1000
0100
1000
0100
1000
,
0100
0010
0001
0010
0001
0010
0001
0010
,
0001
0010
0001
0010
0001
0010
0001
0010
,
0001
0010
0100
0010
0100
0010
0100
0010
,
0100
0010
0100
0010
0100
0010
0100
0010
,
0100
0010
1000
0010
0001
0010
1000
0010
,
0001
0010
1000
0010
0001
0010
1000
0010
,
0001
0100
1000
0100
0010
0100
1000
0100
,
0010
0100
1000
0100
0010
0010
0100
0010
,
0001
0010
0100
0010
0001
0100
0010
0001
,
0010
0100
0010
0001
0010
0100
1000
0100
,
0010
0001
0010
0100
1000
0100
0010
0001
,
0010
0100
1000
0100
0010
0001
0010
0100
,
1000
0000
0010
0000
1000
0000
0000
0010
,
0100
1000
0100
0010
,
0001
0000
0110
0000
1100
0000
0000
0110
,
0000
0000
1100
0000
0011
0000
0000
1100
,
0000
0000
0001
1000
,
0001
0100
1000
0100
,
0011
0000
0110
0000
1001
0000
0000
0110
,
0000
0000
0110
0000
0011
0000
0000
0011
,
0000
0000
0100
0010
,
0010
0001
0010
1000
,
0000
1000
0001
0010
1000
0010
0100
0010
,
1000
0010
0001
0010
0100
1000
0001
0010
,
0001
0100
1000
0100
0010
0001
1000
0100
,
0010
0001
1000
0001
0100
0010
0100
0001
,
0100
0010
1000
0100
1000
0001
1000
0100
,
0001
0010
0100
1000
0001
0100
0010
0100
,
0010
0100
0010
0100
0001
0010
1000
0001
,
0010
0001
0010
0001
0010
0001
0010
0010
,
0001
0000
0000
0000
0000
0000
0010
0000
0000
0000
0000
0000
0100
0000
0000
0000
0000
0000
1000
0000
0000
0000
0000
0000
0001
0000
0000
0000
0010
0000
0000
0000
0000
0100
0000
0000
1000
0000
0000
0000
0100
0000
0000
0000
0000
0010
0000
0000
,
0001
1000
0100
0010
0001
0010
0100
0000
0000
0000
0000
0000
0000
0000
0000
0000
,
0000
0000
0000
0000
,
0000
0000
0000
0000
,
0M00
00M0
0000
0000
M000
0000
0000
0M00
00M0
0000
0000
0000
0000
000M
00M0
0M00
0000
MM00
0000
0000
0MM0
M000
0000
0000
MMMM
0000
0000
0000
0000
M000
M00M
M0MM
MM0M
M0MM
MM0M
M0MM
MM0M
M0MM
MM0M
00MM
M11M
0000
0000
0000
000M
000M
M000
M0MM
MM0M
M0MM
MM0M
M0MM
MM0M
M0MM
0M00
00M0
1M01
00M0
0M00
00M0
0M00
00M0
0M00
00M0
,
0M00
00M0
0M00
00M0
0M00
00M0
0M00
00M0
M220
000M
000M
000M
000M
000M
000M
000M
000M
000M
000M
000M
0000
0000
0000
0000
0000
0000
0000
0000
0000
0000
0000
0000
0000
0000
0000
0000
0000
0000
0000
0000
0000
0000
0000
0000
0000
0000
0000
0000
0000
0000
0000
0000
0000
0000
0000
0000
0000
0000
0000
0000
0000
0000
0000
0000
,
0000
0000
0000
0000
,
0000
0000
0000
0000
,
0000
0000
0000
0000
,
0000
0000
0000
0000
,
0000
0000
0000
0000
0000
0330
0000
0000
0000
0000
0000
0000
0000
0000
0000
0000
;

//---------------dance-single - Copied from Copied f----------------
#NOTES:
     dance-single:
     Copied from Copied f:
     Medium:
     9:
     0.510,0.649,0.223,0.116,0.068,333.000,23.000,12.000,0.000,0.000:
0000
0000
0000
0000
,
0000
0000
0000
0000
0000
0000
0000
0000
0001
0000
0000
0000
1000
0000
0000
0001
,
0000
0000
0000
0000
0000
1000
0001
1000
0001
0000
0000
0000
0100
0000
0000
0010
,
0000
0000
0000
0000
0000
0001
1000
0001
1000
0000
0000
0000
0100
0000
0000
0001
,
0000
0000
0000
0000
0000
0010
0100
0010
0100
0000
0000
0000
0100
0000
0000
0010
,
0000
0010
1000
0000
0001
0000
0001
0000
1000
0000
0000
0000
0100
0000
0000
0000
,
0010
0001
1000
0010
,
1000
0001
0100
0001
,
1000
0001
0020
0030
,
0110
0000
0001
1000
,
0010
0001
1000
0010
,
0100
0001
1000
0010
,
0100
0001
2000
3000
,
0101
0000
1000
0010
,
0100
0001
1000
0100
,
0010
0001
1000
0010
,
0001
0010
0200
0300
,
1001
0000
0001
1000
,
0001
1000
0001
1000
,
0010
0100
0001
1100
,
1000
0101
0001
0100
,
0001
0100
0010
1000
,
0010
0000
1000
0000
0001
0100
0001
0100
,
0001
0000
1000
0010
,
0100
0000
0001
0000
1000
0100
1000
0100
,
1000
0000
0001
0010
,
0100
0000
1000
0000
0001
0010
0100
1000
,
0001
0000
1000
0010
,
0100
0001
1000
0001
,
2002
3003
1000
0010
,
0100
0001
1000
0100
,
0010
0001
1000
0010
,
0001
0010
1000
0100
,
0001
0100
1000
0010
,
0100
0001
1000
0010
,
0100
0000
0001
0000
1000
0000
0010
0100
,
0001
1000
0010
0100
0001
1000
0010
0100
,
0001
1000
0010
0100
0002
0000
0000
0000
,
0000
0000
0000
0000
,
0000
0000
0000
0000
,
0000
0000
0000
0000
,
0000
0000
0000
0000
,
0000
0000
0000
0000
,
0000
0000
0000
0000
0000
0000
0000
0003
,
0000
1000
0001
1000
0000
0110
0000
1001
,
0000
0001
1000
0010
0000
0001
0100
0000
,
0000
0000
0000
1000
0000
0010
0000
0100
,
0000
0001
0000
1000
0000
0010
0000
0200
,
0000
0301
0000
1000
0100
0010
0001
1000
,
0010
1000
0000
0001
0010
0100
1000
0001
,
0010
0001
0000
1000
0010
0100
0001
1000
,
0001
1000
0000
0001
0100
0010
1000
0001
,
0010
0001
0000
0000
1000
0000
0001
0000
,
1000
0001
1000
0010
,
1000
0010
1000
0001
,
0010
0100
1000
0001
,
0110
0000
0001
1000
,
0001
0000
1000
0001
,
1000
0000
0010
0100
,
0010
0100
0020
0030
,
1001
0000
1000
0100
,
0010
0000
0001
0100
,
0010
0000
1000
0100
,
0001
0100
2000
3000
,
0011
0000
1000
0010
,
0100
0000
0010
0100
,
0001
0000
0010
0100
,
0010
0100
0002
0003
,
1100
0000
0001
1000
,
0100
0001
0010
1000
,
1000
0000
1001
1001
,
0110
0110
1001
0020
,
0130
0000
0001
1000
,
0010
0100
0010
0010
,
1000
0000
0110
0110
,
1001
1001
0011
2000
,
3001
0000
1000
0001
,
1000
0001
1000
0001
,
1000
0001
0010
0100
,
0010
0100
0010
0100
,
0001
1000
0010
0100
,
0001
1000
0010
0100
,
0001
0000
1000
0000
0010
0100
0001
1000
,
0010
0100
0001
1000
0010
0100
0001
1000
,
0001
0000
0000
0000
1000
0000
0000
0000
0001
0000
0000
0000
0000
0000
0000
0000
1000
0000
0000
0010
0000
0000
0000
0000
1000
0000
0000
0001
0000
0000
0000
0000
,
0010
0000
0100
0000
0001
0010
0100
0000
0000
0000
0000
0000
0000
0000
0000
0000
,
0000
0000
0000
0000
,
0000
0000
0000
0000
,
0000
0000
0000
0000
0000
0001
0000
1000
,
0000
1001
0000
0000
0000
0000
0000
0000
;

//---------------dance-single - ----------------
#NOTES:
     dance-single:
     :
     Hard:
     11:
     0.746,1.000,0.670,0.349,0.112,433.000,69.000,36.000,0.000,0.000:
0000
0000
0000
0000
,
0000
0000
0000
0000
0000
0000
0000
0000
1001
0000
0000
0000
0100
0000
0000
0011
,
0000
0000
0000
0000
0000
0100
0001
1000
0011
0000
0000
0000
0100
0000
0000
1010
,
0000
0000
0000
0000
0000
0001
0010
0100
1100
0000
0000
0000
1000
0000
0000
1001
,
0000
0000
0000
0000
0000
1000
0010
0100
0110
0000
0000
0000
0001
0000
0000
1010
,
0000
0010
0110
0000
0100
0000
0001
0000
1000
0000
0010
0000
1000
0000
0010
0000
,
1000
0000
0001
0000
0010
0100
0010
0100
,
0010
0000
0001
0000
0100
0001
0100
0001
,
0100
1001
2020
3030
,
0110
0000
0000
0000
0001
0100
0010
1000
,
0010
0000
0100
0000
0001
0100
0010
1000
,
0001
0000
1000
0000
0001
0010
0001
0010
,
0001
1001
0022
0033
,
1001
0000
0000
0000
1000
0100
0010
0001
,
1000
0000
0001
0000
1000
0010
1000
0001
,
0100
0000
0001
0000
1000
0010
1000
0100
,
0010
1100
0022
0033
,
1001
0000
0001
0100
,
0010
1000
0010
0100
,
0001
0100
0001
1100
,
0101
0011
1010
0110
,
0002
0000
0103
0000
1000
0100
1000
0000
,
0010
0100
0010
0000
1001
0000
0010
0000
,
2200
0000
3300
0000
0001
0010
0001
0000
,
1000
0010
1000
0000
0011
0000
1100
0000
,
0202
0000
0303
0000
0001
0010
0100
0000
,
1000
0100
0010
0000
0002
0000
2003
0000
,
3020
0000
0030
0000
1000
0100
0010
0001
,
0100
0001
1000
0010
0100
0000
1001
0000
,
0220
0000
0330
0000
1000
0010
0100
0000
,
0001
0010
0100
0000
1000
0000
0010
0000
,
0001
0000
0100
0000
0001
0100
0010
0000
,
1000
0100
1000
0000
0010
0000
0100
0000
,
0001
0000
1000
0000
0010
0100
0010
0100
,
0001
0010
0001
0010
0001
1000
0001
1000
,
0010
0100
0010
0100
0001
1000
0010
0100
,
0001
1000
0010
0100
0001
1000
0010
0100
,
0001
1000
0010
0100
0002
0000
0000
0000
,
0000
0000
0000
0000
,
0000
0000
0000
0000
,
0000
0000
0000
0000
,
0000
0000
0000
0000
,
0000
0000
0000
0000
,
0000
0000
0000
0000
0000
0000
0000
0000
0000
0000
0000
0000
0000
0000
0000
0000
0000
0000
0000
0000
0000
0000
0000
0000
0000
0000
0000
0000
0000
0000
0000
0000
0000
0000
0000
0000
0000
0000
0000
0000
0000
0000
0000
0000
0000
0000
0000
0003
,
0000
1100
0001
0011
0000
1001
0000
0110
,
0000
1001
1100
1001
0000
1001
0200
0000
,
0000
0000
0000
0000
0000
0000
0000
0000
0300
0000
0000
0000
0000
0000
0000
0000
0000
0000
0010
0000
0000
0000
0000
0000
0000
0000
0000
0100
0000
0000
0010
0000
0000
0000
0000
0000
1000
0000
0000
0000
0000
0000
0001
0000
0000
0000
0000
0000
,
0000
1000
0001
0000
0100
0000
0010
0000
0000
0100
0001
0000
0010
0000
0200
0000
,
0000
0310
0000
1000
0010
0001
0100
1000
,
0001
1001
0000
0010
0100
0001
1000
0011
,
1000
0101
0000
1000
0010
0100
0001
1000
,
0001
1100
0000
0001
0100
1000
0100
0010
,
0100
0001
0000
0000
1000
0010
1000
0010
,
1000
0000
0001
0000
0100
0001
0100
0001
,
0100
0010
1001
0110
,
1100
0101
1001
0110
,
2020
0000
3030
0000
0001
0010
0100
0010
,
0001
0000
1000
0000
0010
0100
0010
1000
,
0010
0000
0100
0000
0001
0100
0010
1000
,
0100
0100
0022
0033
,
1001
0000
0000
0000
0100
0001
0100
0001
,
0010
0000
1000
0000
0010
0001
0010
0001
,
1000
0000
0010
0000
1000
0100
1000
0001
,
1000
0101
2200
3300
,
1001
0000
0000
0000
1000
0100
0010
0001
,
1000
0000
0010
0000
0100
0010
0001
1000
,
0001
0000
0100
0000
0010
0001
0010
1000
,
0001
1100
0102
0013
,
1100
0000
0001
0010
,
1000
0100
0001
1010
,
0022
0033
1001
1001
,
0110
0000
0110
0000
0001
0100
0010
1000
,
0002
0003
1000
0100
,
0001
0010
1000
0110
,
0022
0000
0033
0000
1000
0100
0001
0100
,
1000
0100
0010
0000
0011
0000
2000
0000
,
3001
0000
0000
0000
0100
0010
1000
0010
,
0100
0001
0100
0010
1000
0100
0010
0001
,
0100
0010
0100
0001
1000
0010
0100
0010
,
1000
0001
0100
0010
0100
0001
0010
0100
,
0010
0001
0100
0010
1000
0010
0100
0001
,
0100
0010
1000
0010
0100
0001
0010
0100
,
1000
0010
0100
0001
0010
0100
1000
0100
,
1000
0010
0100
0001
0020
0000
0000
0000
,
0130
0000
0000
0000
0000
0000
0000
0000
0000
0000
0000
0000
0000
0000
0000
0000
1000
0000
0001
0100
0000
0000
0100
0000
1000
0000
0010
0001
0000
0000
0010
0000
,
0100
1000
0100
1000
0010
0100
0002
0000
0003
0000
0000
0000
0000
0000
0000
0000
,
0000
0000
0000
0000
,
0000
0000
0000
0000
,
0000
0000
0000
0000
0000
1001
0000
0110
,
0000
2002
0000
0000
0000
0000
0000
0000
,
0000
0000
0000
0000
,
0000
0000
0000
0000
,
0000
0000
0000
0000
,
0000
0000
0000
0000
,
0000
0000
0000
0000
,
0000
0000
0000
0000
,
0000
0000
0000
0000
,
0000
0000
0000
0000
,
0000
0000
0000
0000
,
0000
0000
0000
0000
,
0000
0000
0000
0000
,
0000
0000
0000
0000
,
0000
0000
0000
0000
,
0000
0000
0000
0000
,
0000
0000
0000
0000
,
0000
0000
0000
0000
,
0000
0000
0000
0000
,
0000
0000
0000
0000
,
0000
0000
0000
0000
,
0000
0000
0000
0000
,
0000
0000
0000
0000
,
0000
0000
0000
0000
,
0000
0000
0000
0000
,
0000
0000
0000
0000
,
0000
0000
0000
0000
,
0000
0000
0000
0000
,
0000
0000
0000
0000
,
0000
0000
0000
0000
,
0000
0000
0000
0000
,
0000
0000
0000
0000
,
0000
0000
0000
0000
,
0000
3003
0000
0000
0000
0000
0000
0000
;
